Flac Iu


크레파스 (드라마 `예쁜 남자` 삽입곡) (3:14). File Compression Type: rar Bit Rate: MP3 I 320 kbps I 44 khz. 라일락 (03:34) 02. Chordify gives you the chords for any song. 사랑이 잘 Can’t Love You Anymore (with 오혁) 5. View All Features. xyz Lossless & Hi-Res Music Download. Fast download even when servers are busy. 2 users explained Rain Drop meaning. Hu – 经济舱 (Live). G-DRAGON) Mp4 (720p) [21. 感谢您对【yunpangou. 16-bit FLAC. 1 Signal Song IU 2020 From $0. Preview eight. 868835 INDEX 00 02:59:12 FILE "10 - Kanashimi to Iu Eki. Master cassette> reel> FLAC. Please buy the original/official to support the artists, all content in this web is for promotional purpose only, we don't responsible for all users. 사이트 내 전체검색. ): 아이유 - Celebrity Audio Format: FLAC HI-RES / MP3 320K / RAR Release Date: 2021. 18] [EP] [WEB-FLAC] piece length 262144. SUGA of BTS) [FLAC 24bit + MP3 320 / WEB] 1312. IU’s second cover album. Audacity can import only standard PCM or compression formats (e. Original Love - 風の歌を聴け download flac mp3. iu 李知恩 - palette [hi-res 24bit-96khz] - 2017 flac. Preferably 24bit. IU - Blueming [Hi-Res] FLAC IU 01/27 收藏 下载地址. Career Consultant in The Center for Tranfer and Adult Students, IU Online, and the School of Liberal Arts Senior Associate Faculty in the School of Liberal Arts. Tracklist Jun Maeda x Nagi Yanagi Kimi to Iu Shinwa/Goodbye Seven Seas Mp3 Aac. IU (아이유) - Love poem [2019. In the "All or part of the file name:" field, type: thumbs. 0kHz] Discussion in ' Albums (lossless) ' started by Danielo007, Mar 25, 2021. rar download online. 19 IU - 唠叨. HIGH4 1st Mini Album 'HI HIGH' - EP 2014 Blessed - EP 2017 Dead or Alive - Single 2015 A Little Close - Single 2014 Day By Day - Single 2015 하나의 하늘에 사는 날까지 - Single. 몇 년의 힘든 트레이닝을 거쳐 데뷔하는 또래 가수들과 비교하면 아이유의 음악 여정은 순탄한 편이다. 1 disc (s) - 10 track (s) Total length: 00:36:27. IU - 2019 'Love, poem' Concert in Seoul [Blu-ray ISO + MKV 1080p] [2020. 0 kHz - Stereo. 20]IU - 3집 Modern Times [FLAC] format_list_bulleted Onedrive. 다음 받는 분들을 위해서 배포 유지해 주세요. This thread is archived. Korogaru Iwa Kimi ni Asa ga Furu 07. Advanced Audio Codec. Rasmusen, E. 简介: 艾利和AK RIPPER MKII慢速抓取 此抓轨机出来的FLAC格式码率为1415 请勿随意转换 曲目: 01 Lilac 02 Flu 03 Coin 04 Hi Spring Bye 05 Celebrity 06 Troll 07 Empty Cup 08. Download Umphrey's McGee November 9, 2007, IU Auditorium, Bloomington, IN MP3 and FLAC. May 27, 2021. VCR#3 Fake Documentary + 스물셋 5. 25 Language: Korean File Compression Type: rar Bit Rate: Plus AAC M4A I 256 kbps I 44 khz File Size: 72 MB I 84 MB. 을의 연애 (With 박주원) 02. 여자보다 더 좋아~! 탑토이. 사랑이 잘 Can’t Love You Anymore (With 오혁 Ohhyuk)5. flac; 4黄霄雲 – 星辰大海. 23 - Fukuwarai/Genjitsu to iu na no kaibutsu to tatakau-sha-tachi [福笑い/現実という名の怪物と戦う者たち] [FLAC - MP3]. Obliviate 08. Celebrity 06. Stir and garnish with a lime wedge or fresh mint. 遠くへ -1973年・春・20才 [Tooku e -1973, Haru, 20-sai] 3. Tracklisting: 01. 팔레트 Palette (feat. Advanced Audio Codec. ?“約束の地” サンタ・ルシア・ハイランズ地区を代表するトップ生産者。有力各誌で“本家”DRCの特級に伯仲する「カリフォルニア版ラ・ターシュ総本家」 。《ルシア by ピゾーニエステイト》 ピノノワール ソベラネス・ヴィンヤード サンタルシアハイランズ. Doing all right (instrumental) mediafire. 1 disc (s) - 10 track (s) Total length: 00:36:27. Celebrity (03:15) Download WEB FLAC …. 여자보다 더 좋아~! 탑토이. DJ JAZZYWHUT [Be sure to check out for the dopest mixes] Dear guests! This blog does not store any files on its server. IU (아이유) – eight (Prod. Download Umphrey's McGee November 9, 2007, IU Auditorium, Bloomington, IN MP3 and FLAC. To earn your degree or certificate as an international student, you have your choice of all the top schools, colleges and universities in the USA that specialize in the best Accounting programs Click on the map of the United States below, to find a school in the area you are interested in studying, or just scroll and browse. 2MB) Info Wrote: 収録内容 01. These files are automatically generated by Windows, and there is no harm in deleting them or excluding them from system backups. We would like to show you a description here but the site won’t allow us. [dlwlrma 2Million Subscriber Special] Blueming Live Clip (2019 IU Tour Concert 'Love, poem') 12. flac" WAVE INDEX 01 00:00:00 TRACK 10 AUDIO TITLE "Kanashimi to Iu Eki" ISRC JPSR07303320 REM REPLAYGAIN_TRACK_GAIN -1. About the album. Release Name: IU-Palette-KR-CD-FLAC-2017-HUNNiT Artist: IU Album: Palette Genre: Pop Year: 2017 Tracks: 10/10 Duration: 00:39:20 Size: 252. [210325] 아이유 (IU) 5th Album LILAC (Qobuz Hi-Res 24bits-48kHz) 음악 14:40 29 익명 다운로드 [210325] 아이유 IU 5th Album LILAC Qobuz Hi-Res 24bits-48kHz. IU - Palette 2017 [24bit 96khz FLAC]/10. 9_8_08 - Evening on IU Campus Near Student Building. Since its. 19のままさ [19 no Mama sa] 2. 이 지금 Dlwlrma 2. 24-bit FLAC. Saying you use FLAC because it “sounds better” is like saying you only drink your wine at 53. IU - Into the I-LAND (Romanized) Lyrics: I got pushed tteomillyeo wasseo / Oraedo chaja hemaen kkumui mun ape / Nae ane geu jageun noraega / Jageun noraega nal yeogi deryeowasseo / Oerowodo gidael. RyuShare Part 1 Part 2 Part 3 Kimi to Iu Hana 04. mp3; 3深海鱼子酱 – 千千万万. 입술 사이 (50cm) 04. IU - 비밀의 화원. 感谢您对【yunpangou. I currently have 621 whole or partial shows (including different and/or separate audio and video versions of some shows), compilations, and demos. To earn your degree or certificate as an international student, you have your choice of all the top schools, colleges and universities in the USA that specialize in the best Accounting programs Click on the map of the United States below, to find a school in the area you are interested in studying, or just scroll and browse. Flac iu [email protected] Popular Posts IU - eight [FLAC] YOASOBI - Yoru ni Kakeru [FLAC Quality: FLAC 24 bit / 96 kHz (Tracks) Artist: VA Title: Wamono A To Z Vol. 6 ] - 구글검색 짱토, 아이유(IU) [2010 텔레시네마 프로젝트 Vol. Related posts: IU – 꽃갈피 花書籤 [MQS FLAC 24bit/96khz] IU – CHAT-SHIRE [MQS FLAC 24bit/48khz] IU – IU…IM [MQS FLAC 24bit/44,1khz]. Download RAR/MP3 320kbps/FLAC lossless/AAC 256kbps/ALAC lossless/ZIP. [210325] 아이유 (IU) 5th Album LILAC (Qobuz Hi-Res 24bits-48kHz) 음악 14:40 29 익명 다운로드 [210325] 아이유 IU 5th Album LILAC Qobuz Hi-Res 24bits-48kHz. Into the I-LAND MP3-320K. zip | 437,40 Mb. 0 kHz - Stereo. 아이유 전집 FLAC. IU (아이유) - Love poem [2019. 아이유(IU) ['10 텔레시네마 프로젝트 Vol. 크레파스 (드라마 `예쁜 남자` 삽입곡) (3:14). IU-LILAC-KR-CD-FLAC-2021-HUNNiT. Total length: 3:14. 아이유 - 팔레트 Release Date: 2017-04-21 Artists: IU (Feat. IU - Blueming [Hi-Res] FLAC IU 01/27 收藏 下载地址. HIGH4 1st Mini Album 'HI HIGH' - EP 2014 Blessed - EP 2017 Dead or Alive - Single 2015 A Little Close - Single 2014 Day By Day - Single 2015 하나의 하늘에 사는 날까지 - Single. 17) - Single IU - Love poem - EP. I-LAND Part. 가을 아침 / Autumn Morning (Ga-eul achim) 2. 아이유 전집 FLAC. More by HIGH4 & IU. SUGA) - Single by IU on Apple Music. SUGA) - Single IU. 6 ] - 구글검색 짱토, 아이유(IU) [2010 텔레시네마 프로젝트 Vol. Pred: 2021-03-28 09:12:13 2m 3d 12h 17s ago Group: HUNNiT Section: FLAC Files: 10 F Size: 247 MB Show NFO. [SHARE] IU - Palette (FLAC, 24-bit/96kHz) UPLOADED This is a reupload because I am able to finally get the entire album in 24/96 thanks to RR, here is the link (2 times):. Find more of IU lyrics. Butter-Fly - 和田光司 2. 정규 앨범의 시작을 알리는 선공개 곡 'Celebrity'는 tropical house가 가미된 electronic pop 음악으로, 다양한 장르를 아우르며 수많은. Improve this page. 2MB) Info Wrote: 収録内容 01. 삐삐-iu[flac格式]无损音乐格式百度网盘下载、在线歌词,无损音乐下载网为您提供flac,wav,sacd,hi-res,ape,dts,dsd,车载无损音乐等超高品质无损音乐下载!. 专辑介绍:IU出了不少单曲专辑和正规录音室专辑,具体详情见下面的专辑封面,各位粉丝收藏的话尽快,失效不. 100% Upvoted. high4、iu - 봄 사랑 벚꽃 말고(除了春天爱情和樱花)[320k/mp3] 2020-04-21 14:19:19 2 사랑의 불시착 OST Part. 6 MiB) 05 - New World. Love of B 02. Modern Times 06. G-Dragon) 2. IU - 抓住我的手. rar download online. Janice Bankert-Countryman. jpg [94K] 12. IU - Blueming - N6L. Blue Train 06. [REQUEST] IU (Korean) Any album (FLAC and higher) Close. Label: EDAM Entertainment. Triedro Triedro is a trio. 스킨십은 사양할게요. Advanced Audio Codec. 6 MiB) 05 - New World. 20 IU - 《Can You Hear Me》. IU - Into the I-LAND (Romanized) Lyrics: I got pushed tteomillyeo wasseo / Oraedo chaja hemaen kkumui mun ape / Nae ane geu jageun noraega / Jageun noraega nal yeogi deryeowasseo / Oerowodo gidael. Artist & Title: IU – SMASH HITS 2 – The Stories Between U & I Artist & Title (Org. 簡介: === 2021年作種計畫 === [1961] Anju to Zushio Maru_安壽和廚子王丸(安寿と厨子王丸)_MOVIE (triple-Dub. 格式:flac 大小:24M 点击:. Koubou (光芒) 14. Audacity can import only standard PCM or compression formats (e. Album · 2020 · 1 Song. Lossless Audio Checker A utility to check whether a WAVE or FLAC file is truly lossless or not. VCR #2 Cinema + 입술 사이 (50cm) 3. G-DRAGON) 3. ): 아이유 – IU 5th Album ‘LILAC’ Audio Format: MP3 320kbps / RAR Release Date: 2021. 65 Gb Every 2 Days • Unlimited Speed • No Waiting Time • Streaming Video • Simultaneous Download. 아이유(IU) - Palette Year: 2017. db files are database files containing the small images displayed when you view a folder in Thumbnail view (as opposed to Tile, Icon, List, or Detail view). ターゲット 〜赤い衝撃〜 - 和田光司 3. 24 MB Read More…. Bad Day 07. ): 아이유 - SMASH HITS Audio Format: FLAC Lossless / MP3 320K / RAR Catalog Number: WMI5419694982 Release Date: 2016. 아이유 무손실 (FLAC) 및 MP3 320K 전앨범 모음 > 음악 | 토렌트하자. 아이유 (IU) - 첫 이별 그날 밤. IU – Celebrity [FLAC/MP3] 专辑简介: 무려 4년 만에 정규 앨범을 예고한 아이유가 정규 5집 앨범의 선공개 곡으로 꺼낸 카드는 'Celebrity'였다. 크레파스 (드라마 `예쁜 남자` 삽입곡) (3:14). 69 GB; FLAC (85. G-DRAGON) 3. Some artists and services choose to put their music up for free, and they do so in a way that allows you to download it legally. านบ่ได้ไป - Single ระบบเสียง LOSSLESS 16BIT คุณภาพเสียง : KBPS/44. 02 Goodbye Seven Seas. 28] November 13, 2020. 01 LILAC; 02 Flu; 03 Coin; 04 Hi spring Bye; 05 Celebrity; 06 Troll (Feat. Modern Times. Sensei Milanko Djurdjulov 4th dan. Tracklist 1. A Gloomy Clock 11. 미아 | Mia aka Missing Child. 22/FLAC 24bit Lossless/RAR) Tracklist. 16] admin January 18, 2021 Japan Music 22 Views. 사이트 내 전체검색. 5 IU - 抓住我的手. Love of B 02. Watch video Italia 100 Loss Less 2019 FLAC part1 rar. Main artist: IU. Artist: IU Title: Modern Times - Epilogue Year Of Release: 2013 Label: Loen Entertainment Inc Genre: Jazz Pop, Vocal Jazz, Swing, Ballad Quality: 320 / FLAC (tracks+. flac" WAVE INDEX 01 00:00:00. end is ____ 6. VCR #2 Cinema + 입술 사이 (50cm) 3. Karate at FLAC, Elkhorn, WI. 아이야 나랑 걷자 (Feat. Korean musician IU has released her music video for "Into the I-LAND," the official soundtrack for Mnet's reality show I-LAND. ): 아이유 - Celebrity Audio Format: FLAC HI-RES / MP3 320K / RAR Release Date: 2021. 아이유(IU) – Palette Year: 2017. 搜无损网Ape-Flac. Doing all right (instrumental) mediafire. iu于9月22日发行翻唱专辑《花书签2》。 《花书签2》由郑在日、高太英、洪素珍、姜亦彩、Jukjae、hyukoh林贤帝、金成模、郑成河等广泛时代和音乐体裁多样的音乐人们参与,在原曲传统魅力的基础上,添加IU的专属色彩与魅力。. IU (아이유) – eight (Prod. 01 - Monthly updates might be a thing again. pw] IU - IU 5th Album 'LILAC' (2021) [FLAC 16 bit / Hi-Res 24 bit) Thảo luận trong ' Nhạc quốc tế ' bắt đầu bởi LossLessZone , 26/3/21. 韩国女神李知恩iu时隔四年终于发行个人正规5辑《lilac》,依旧是充满活力的曲风,新鲜出炉歌单,各位不妨鉴赏一下。. I currently have 621 whole or partial shows (including different and/or separate audio and video versions of some shows), compilations, and demos. 6 IU - IU…IM - EP IU - Celebrity - Single Recent Posts. 전체 용량: 329. 99 USD 90 days* 4 TB Bandwidth 3 TB. It performs FLAC conversion, which is designed especially for audio files. Information Title : Kimi to Iu Shinwa/Goodbye Seven Seas Artist : Jun Maeda, Nagi Yanagi Catagory : Single Series : Kamisama ni Natta Hi Date Release : 2020. Popular Posts IU - eight [FLAC] YOASOBI - Yoru ni Kakeru [FLAC] IZ*ONE - Oneiric Diary [FLAC] TWICE - MORE & MORE [FLAC] Update. Artist & Title: IU - Celebrity Artist & Title (Org. A Gloomy Clock 11. 5元立即支付 或 升级VIP后免 11-27 1. Share this: Twitter; Facebook; Tags: IU. 다운로드 (파일) 다운로드 (마그넷) IU - Love Poem FLAC - 24bit. Corbin) by Boys Noize, released 17 March 2021 1. Email: [email protected] 6%) Torrent File Magnet Link. flac : 23,776,220. FLAC ExtMatrix / RyuShare. Alabama's dirtiest back alley slease rock n roll band!!!!!. 아이유 (IU) 3rd Single Album 스무 살의 봄/03 그 애 참 싫다. Preferably 24bit. 아이유 (IU) 리메이크 Album [FLAC] 음악 04. NCT 127 - Save - Single Released: 2021-06-04 Genre: K-Pop TRACK LIST: 01. 69 GB; FLAC (85. 아이야 나랑 걷자 (Feat. Lost and Found (EP của IU) Lost and Found. 18] [EP] [WEB-FLAC] cover. Kimi no Omoi Egaita Yume Atsumeru HEAVEN. Rasmusen, E. Jun 13, 2021. 0 / 5, 0 votes. 11] (트와이스 - Taste of Love) MP3 320KBPS FLAC / Lossless / WEB 130. [국내] 아이유 IU - Palette 2017 [24bit 96khz FLAC], 토렌트,torrent,토렌트사이트, 토렌트순위, 무료영화,최고의 무료토렌트사이트, 토렌트 파일공유 최강! 차원이 다른!. 2012) - Single IU - Hold My Hand (The Greatest Love OST Part 4) IU - Aishiteru (Live @ Tokyo Kokusai Forum 2012. Download the entire concert or single track MP3s from LiveCheese. iu - blueming. cr Password: kpopeach. 아이유 (IU) 3rd Single Album 스무 살의 봄/02 하루 끝. Lossless Audio Checker A utility to check whether a WAVE or FLAC file is truly lossless or not. I-LAND Part. [ron] Vivid Strike! - Volume 3 720p BDRip x264 AAC Includes 05. The Beatles - Let it be (FLAC) The Beatles - Yesterday (FLAC) Classical: Tchaikovsky - Violin Concerto in D minor (FLAC) Kpop: IU - Chat-shire Whole Album (FLAC) IU - Celebrity (FLAC) IU - Some of Love Poem (FLAC) IU - Most of Palette (FLAC) IU - Good day (FLAC) Moonbyul - Dark side of the moon (FLAC) Moonbyul - Absence with intro (FLAC. Download Jpop Song Single & Album Flac Mp3 AAC Free. 19 IU - 唠叨. 91 dB REM REPLAYGAIN_TRACK_PEAK 0. BECOME PREMIUM MEMBER & DOWNLOAD FAST. 5 IU - 抓住我的手. 아이유(IU) ['11 2012여수 세계 박람회 주제곡] - 구글검색 짱토, 아이유 ['11 2012여수 세계 박람회 주제곡] - 01 바다가 기억하는 얘기. IU’s second cover album. IU - 《Palette》Hi-Res. Piano, clarinet and percussion. [210325] 아이유 (IU) 5th Album LILAC (Qobuz Hi-Res 24bits-48kHz) 음악 14:40 29 익명 다운로드 [210325] 아이유 IU 5th Album LILAC Qobuz Hi-Res 24bits-48kHz. 잠 못 드는 밤 비는 내리고 / Sleepless Rainy Night (Jam mot deuneun bam bineun naeligo). 1 file per 120 minutes. IU-LILAC-KR-CD-FLAC-2021-HUNNiT. There are absolutely NO downloads of copyright-protected works, hyperlinks to downloads, torrent files, magnet links, nzb files or similar content on any part of. 韩国女神李知恩iu时隔四年终于发行个人正规5辑《lilac》,依旧是充满活力的曲风,新鲜出炉歌单,各位不妨鉴赏一下。. 0kHz] Discussion in ' Albums (lossless) ' started by Danielo007, Mar 25, 2021. They use the following channel assignments, taken from the FLAC spec: (FL/FR/FC is Front Left/Right/Center, RL/RR/RC is Rear, SL/SR is Side, and LFE is low frequency effects for the subwoofer). 7 degrees Fahrenheit because that is the “best temperature. 0 kHz - Stereo. 아이유(IU) ['11 2012여수 세계 박람회 주제곡] - 구글검색 짱토, 아이유 ['11 2012여수 세계 박람회 주제곡] - 01 바다가 기억하는 얘기. Please buy the original/official to support the artists, all content in this web is for promotional purpose only, we don't responsible for all users. úÑ 6°ŸoÅĹ íú|"i ÔEŠª6. The Foreign Language and Area Studies (FLAS) fellowships are funded by the United States Department of Education in support of graduate and undergraduate students studying less commonly taught languages and cultures, in particular, those considered to be of critical interest to the United States. 7 MiB) 04 - Voice-Mail. Quality: FLAC 16 bit / 44. SUGA of BTS) [FLAC 24bit + MP3 320 / WEB] 1312. 밤편지 Through the Night 9. ITUNES PLUS AAC M4A - Thanks to 郁亭. 아이유 (IU) 3rd Single Album 스무 살의 봄/Cover. Audio: FLAC 16 bit / 44. Download Lagu Full Album Gratis, FLAC, MP3 & M4A, dalam bentuk RAR, menggunakan Google Drive, MEGA, Mediafire dan Uptobox. 作者:夕阳小编 日期:2021-03-26. net helps you to store and share unlimited files, with very high download speeds. [Single] IU – Flower Bookmark 2 (2017. se - MUSIC 音楽 - [KPOP][Single] 아이유 IU – Celebrity (2021. * Ektoplazm is a source for awesome quality electronic music. In the "Look in:" drop-down menu, select Local Hard Drives (C:). Comments Off on IU (아이유) - SMASH HITS [FLAC + MP3 320 / CD] 169. the Red Shoes 05. Download the entire concert or single track MP3s from LiveCheese. 5 IU - 抓住我的手. 라일락 (LILAC) 02. Download Jpop Song Single & Album Flac Mp3 AAC Free. [SHARE] IU - Palette (FLAC, 24-bit/96kHz) UPLOADED This is a reupload because I am able to finally get the entire album in 24/96 thanks to RR, here is the link (2 times):. 1 KiB) IU - Can You Hear Me. ターゲット 〜赤い衝撃〜 - 和田光司 3. Modern Times 06. mp3; 5一支榴莲 – 海底. Categories: Pop Flac Download. Artist & Title: IU – Celebrity Artist & Title (Org. SUGA of BTS) [FLAC 24bit + MP3 320 / WEB] May 7, 2020; by admin; Comments Off on IU (아이유) – eight (Prod. 11월 24일 서울 (일요일. Tracklist: Filename. v/1 channelschlist7B G R compressioncompression dataWindowbox2i ÿ ÿ displayWindowbox2i ÿ ÿ lineOrderlineOrder pixelAspectRatiofloat €?screenWindowCenterv2f screenWindowWidthfloat €?9 X; ›Æ pV cÙ ÃQ ÛÔ ÏU ë † uC þ4 O ȶ"1[&¬ *•Þ-CË1Ù¦5WŠ9Jd= KA¿AEÃAIIIMÁXQÙkU7ƒYU™]¯«aB­eIœi 9 " Ì îüïÿßþÿöÿ. 아이유 (IU) 3rd Single Album 스무 살의 봄/Cover. LossLessZone Well-Known Member. Saying you use FLAC because it “sounds better” is like saying you only drink your wine at 53. db files by pressing Ctrl-a. 接下来为大家分享的是IU (李知恩)新专辑《LILAC》(高品质MP3+无损FLAC)的百度云资源,希望大家能够喜欢《LILAC》!. Kojima48 July 22, 2020. Daydreaming Themes for looking back at where you've been and what you'll leave behind. 音乐格式:无损FLAC+MP3版. VCR#3 Fake Documentary + 스물셋 5. Can't Love You Anymore IU 2017 From $0. G-Dragon) 2. Cute as a button with the talent to match, popular singer IU keeps it Real with her third mini-album. Download RAR/MP3 320kbps/FLAC lossless/AAC 256kbps/ALAC lossless/ZIP. Forest and Thought 4. There is an optical output so B2 can deliver music to a high end DAC or other high end audio equipment with uncompromised audio quality. 라일락 (03:34) 02. 专辑介绍:IU出了不少单曲专辑和正规录音室专辑,具体详情见下面的专辑封面,各位粉丝收藏的话尽快,失效不. 파일크기 : 336M. 3 IU - The Red Shoes. Celebrity (03:15) Download WEB FLAC …. านบ่ได้ไป - Single ระบบเสียง LOSSLESS 16BIT คุณภาพเสียง : KBPS/44. 아이유(IU) ['10 텔레시네마 프로젝트 Vol. SUGA) - Single by IU on Apple Music. ôõà]­Â ìãŽ3 Á´è½ñÈ 'N•,hþ$m 8Éáù S·)Ü>1¸² Í ²Gdf¤6`LV€¢L_% úm#o ©«ßQ¸Ï4ãjºî¾É:œn¢Õð¿ãHEx*™ÐåTmÍ29ƒ¡YeNËý°4Å. 한낮의 꿈 (Feat. Daydream 12 Artist & Title: IU – Celebrity Artist & Title (Org. * Ektoplazm is a source for awesome quality electronic music. ITUNES PLUS AAC M4A. VCR #2 Cinema + 입술 사이 (50cm) 3. 우울시계 (Feat. Label: Fave Entertainment Country: South Korea [Album] IU – IU 5th Album ‘LILAC’ ロザリーナ (Lozareena) – 飛べないニケ [FLAC 24bit + MP3 320 / WEB] CIX – All For You [FLAC 24bit + MP3 320 Jan 18, 2018 · Audacity can import only standard PCM or compression formats (e. 27 Tracklist: 01. Download Jpop Song Single & Album Flac Mp3 AAC Free. 11월 24일 서울 (일요일. Late in life by Iu Takahashi, released 16 April 2021 1. NAGGING! A very cute song! With eng subs Credits to the ones who subbed it, AND I dont own this vidComments please^^. 11 comments. Some artists and services choose to put their music up for free, and they do so in a way that allows you to download it legally. 미운 오리 | Ugly Duckling 02. 미아 + VCR 4. 21 -> FLAC Location Bloomington, IN Run time 154:18. IU – 잼잼 (Jam Jam). flac; 4黄霄雲 – 星辰大海. Top off with Calorie Free Lemon Lime Soda. Tracklist: Filename. Download Umphrey's McGee November 9, 2007, IU Auditorium, Bloomington, IN MP3 and FLAC. Related posts: IU – 꽃갈피 花書籤 [MQS FLAC 24bit/96khz] IU – CHAT-SHIRE [MQS FLAC 24bit/48khz] IU – IU…IM [MQS FLAC 24bit/44,1khz]. Singer: IU Album title: Chat-Shire Label: Loen Entertainment ‎– L100005113 Type: CD, EP Country: South Korea Date of released: 23 Oct 2015. 이 지금 Dlwlrma 2. flac 103 MB. 사랑이 잘 Can't Love You Anymore (with 오혁) 5. 21 IU - 《Modern Times》. Tracklist 1. านบ่ได้ไป - Single ระบบเสียง LOSSLESS 16BIT คุณภาพเสียง : KBPS/44. 2001 births 04. 2021 EDAM Entertainment,under license to Kakao Entertainment 2021 EDAM Entertainment,under license to Kakao Entertainment. Music files are typically compressed to provide you with faster streaming. flac [24M] 2. IU - Growing Up [1st Album Korean] Release Date: 2009. Written and composed by Kim Yi Na and Lee Min Soo, the upbeat main track "Good Day" complements IU's powerful voice with a funky arrangement of guitar, piano, violin, and brass. 25] [Single] TAEMIN – Advice – The 3rd Mini Album [FLAC + MP3 320 / WEB] [Album] THE YELLOW MONKEY – SINGLE COLLECTION (Remastered) [MP3 320 / WEB]. FLAC F350 - Intro Transltn Studies: IU IUPUI Traditional 08/21/2000 - 12/14/2002: FLAC F450 - Computers In Transltn: IU IUPUI Traditional 01/08/2001 - 12/14/2002: FLAC F450 - Computers In Translation: IU IUPUI Traditional 01/13/2003 - Fall 2007 ***. flac - mp3 version 9_8_08 - Evening on IU Campus Near Student Building. Clandestine Blaze - Secrets Of Laceration (2021) [ FLAC ] Chicane - Everything we had to leave behind (2021) [ FLAC ] Buried - Oculus Rot (2021) [ FLAC ] Bodysnatch - Instigate the Lunatics (2021) [ FLAC ] Bloodshot Eyes - On My Knees (2020) [ FLAC ] Bloodshot Eyes - Bad Blood (2020) [ FLAC ] Benny The Butcher. 몇 년의 힘든 트레이닝을 거쳐 데뷔하는 또래 가수들과 비교하면 아이유의 음악 여정은 순탄한 편이다. DVD ISO ExtMatrix Part 1 Part 2 Part 3 Part 4 Part 5 Part 6 Kimi to Iu Hana 04. [Album] OH MY GIRL - Dear OHMYGIRL [24bit Lossless + MP3 320 / WEB] [2021. iu 李知恩 - palette [hi-res 24bit-96khz] - 2017 flac. 25 Language: Korean File Compression Type: rar Bit Rate: Plus AAC M4A I 256 kbps I 44 khz File Size: 72 MB I 84 MB. Stream Good Day - IU [Lossless FLAC] by Nguyễn Trần Thịnh from desktop or your mobile device. mp3; 3深海鱼子酱 – 千千万万. 정규 앨범의 시작을 알리는 선공개 곡 'Celebrity'는 tropical house가 가미된 electronic pop 음악으로, 다양한 장르를 아우르며 수많은. 잼잼 Jam Jam 6. 라일락 (03:34) 02. IU (아이유) - SMASH HITS [FLAC + MP3 320 / CD] March 2, 2021. Quality: FLAC 16 bit / 44. 24 MB Read More…. 6 ] - 구글검색 짱토, 아이유(IU) [2010 텔레시네마 프로젝트 Vol. G-DRAGON of BIG BANG) Title: 팔레트 (Palette) Duration: 03:38 Link download: - [MV] IU - Palette (Feat. 25 IU - 《Real》. Select all of the thumbs. menu Jialezi chevron_right / chevron_right music chevron_right IU专辑合集 chevron_right [2013. 07 MB) IU - Palette (Feat. To prevent Windows from generating thumbs. Main artist: IU. 5 IU - 抓住我的手. 별을 찾는 아이 (feat. 24 MB Read More…. FLAC ExtMatrix / RyuShare. itunes developed a codec called AAC. Zip is the most-widely used format, used by the Windows operating. IU 아이유 - Celebrity [2021. Artist & Title: IU - Celebrity Artist & Title (Org. IU - 抓住我的手. [ron] Vivid Strike! - Volume 3 1080p BDRip Hi10 FLAC Includes 05. IU – 잼잼 (Jam Jam). Choose a download type Download time. 25: 2020년 인기음원 모음 1549곡 [무손실 flac] part1: 12. [1080p] IU - 10Year Anniversary Tour Concert dlwlrma [2019] (아이유 - 10주년 투어 콘서트 이지금) IU. DEAN) 07 Empty Cup; 08 My sea; 09 Ah puh; 10 Epilogue; Credits. se - MUSIC 音楽 - [KPOP][Single] 아이유 IU – Celebrity (2021. Audio: FLAC 16 bit / 44. HIGH4, IU - Not Spring, Love, or Cherry Blossoms - Single IU - Fifth Finger - Telecinema Project Vol. It performs FLAC conversion, which is designed especially for audio files. IU-Palette-KR-CD-FLAC-2017-HUNNiTFLAC (tracks) 16 bit/ 44,1kHz | Time – 00:39:20 minutes | 252. Warui Yume (わるいゆめ) 12. K-Pop · 2020 Preview Song Time eight (feat. 마침표 Full Stop 8. Download RAR/MP3 320kbps/FLAC lossless/AAC 256kbps/ALAC lossless/ZIP. 25] 아이유(IU) - IU 5th Album 'LILAC' 아이유(IU) - IU 5th Album 'LILAC' 성시경,아이유(IU) - 첫 겨울이니까; IU Love Poem FLAC 24bit. IU (아이유) - eight (Prod. name IU (아이유) - Love poem [2019. This website about R. 여자보다 더 좋아~! 탑토이. 1 file per 120 minutes. mp3; 3深海鱼子酱 – 千千万万. Tracklist 1. 6 MiB) Can You Hear Me. IU - blueming (2019) FLAC Lossless. Fill glass with ice. Audio: FLAC 16 bit / 44. Download Umphrey's McGee November 9, 2007, IU Auditorium, Bloomington, IN MP3 and FLAC. 미운 오리 | Ugly Duckling 02. Welcome to the May 2021 issue of Black Grooves, sponsored by the Indiana University Archives of African American Music and Culture. [국내앨범] 아이유 (IU) 앨범 모음 [FLAC+MP3] 02-10: 6 [국내앨범] [2016. 6 IU - IU…IM - EP IU - Celebrity - Single Recent Posts. IU (아이유) - SMASH HITS [FLAC + MP3 320 / CD] March 2, 2021. flac; 4黄霄雲 – 星辰大海. 18 IU - 你和我. 01 Kimi to Iu Shinwa. 01 Dlwlrma (이 지금) 02 팔레트 (feat. cue,log) / FLAC (tracks) 24bit-96kHz Total Time: 53:41 Total Size: 135 / 406 Mb / 1. 专辑介绍:IU出了不少单曲专辑和正规录音室专辑,具体详情见下面的专辑封面,各位粉丝收藏的话尽快,失效不. iu - blueming. 30) 2013 SBS 가요대전 - You Are A Miracle/You Are A Miracle 2013 SBS 가요대전 Friendship Project. 10 IU - 秘密花园. FILE "09 - Hana ga Chiru Toki. Late in life by Iu Takahashi, released 16 April 2021 1. 1 KiB) IU - Can You Hear Me. 韩国女神李知恩iu时隔四年终于发行个人正规5辑《lilac》,依旧是充满活力的曲风,新鲜出炉歌单,各位不妨鉴赏一下。. Hu – 经济舱 (Live). my MF ac have benn baned again, Now i finding another filehost to upload the file. HIGH4, IU - Not Spring, Love, or Cherry Blossoms - Single IU - Fifth Finger - Telecinema Project Vol. 56 Source Sony ECM-990> Master Cassette Taped by Steve Maizner Transferred by David Minches Type sound Venue. Lost and Found (EP của IU) Lost and Found. G-DRAGON) 3. [Album] TWICE – Taste of Love [2021. A Gloomy Clock 11. [210325] 아이유 (IU) 5th Album LILAC (Qobuz Hi-Res 24bits-48kHz) 음악 14:40 29 익명 다운로드 [210325] 아이유 IU 5th Album LILAC Qobuz Hi-Res 24bits-48kHz. live show website. Bad Day 07. [Single] IU – Flower Bookmark 2 (2017. Aggregation menu. [Album] OH MY GIRL - Dear OHMYGIRL [24bit Lossless + MP3 320 / WEB] [2021. Save MP3-320K. 11 comments. 97 MB | Genre: PopTracks: 10/10 | Source: Scene. 팔레트 Palette (feat. 韩国女神李知恩iu时隔四年终于发行个人正规5辑《lilac》,依旧是充满活力的曲风,新鲜出炉歌单,各位不妨鉴赏一下。. [ 다음 주소 안내 : https://torrentplay11. 75 OVA + 09. 비밀의 화원 / Secret Garden (Bimir-ui hwa-won) * 3. mp3; 5一支榴莲 – 海底. Time to fight back in my way 05. 1 file per 120 minutes. Hi Spring Bye 5. [Album] TWICE – Taste of Love [2021. mp3; 6是七叔呢 – 踏山河. 20 IU - 《Can You Hear Me》. flac 103 MB. IU – Growing Up (2009/FLAC/分轨/390M) 歌手:IU. Advanced Audio Codec. DOWNLOAD From : Rapidgator, Uploaded, Katfile, Mexashare, …. Sensei Milanko Djurdjulov 4th dan. net helps you to store and share unlimited files, with very high download speeds. 01 LILAC; 02 Flu; 03 Coin; 04 Hi spring Bye; 05 Celebrity; 06 Troll (Feat. Watch video Modern Times 2013 FLAC rar. 아이유 (IU) - 미리 메리 크리스마스. Archived [REQUEST] IU (Korean) Any album (FLAC and higher) Looking for the Korean Singler IU and any of her albums. For setlists to the shows that have not yet been listed here, visit this extensive R. flac" WAVE INDEX 01 00:00:00. Cute as a button with the talent to match, popular singer IU keeps it Real with her third mini-album. [Album] TWICE - Taste of Love [2021. zip | 437,40 Mb. 簡介: === 2021年作種計畫 === [1961] Anju to Zushio Maru_安壽和廚子王丸(安寿と厨子王丸)_MOVIE (triple-Dub. 2 (BD 1920×1080 10bit FLAC) Epub Torrent. flac - ogg version 9_8_08 - Evening on IU Campus Near Student Building. Download The String Cheese Incident October 26, 2004, IU Auditorium, Bloomington, IN MP3 and FLAC. 01 Kimi to Iu Shinwa. G-DRAGON of BIG BANG) Title: 팔레트 (Palette) Duration: 03:38 Link download: - [MV] IU - Palette (Feat. Jun 13, 2021. Artist: IU Title: Modern Times - Epilogue Year Of Release: 2013 Label: Loen Entertainment Inc Genre: Jazz Pop, Vocal Jazz, Swing, Ballad Quality: 320 / FLAC (tracks+. Related IU - Good Day mp3 / flac albums: The Golden Cups - The Golden Cups Album download flac mp3. You may like these posts. 마침표 Full Stop 8. 5元立即支付 或 升级VIP后免 11-27 1. Triedro Triedro is a trio. Love of B 02. The Foreign Language and Area Studies (FLAS) fellowships are funded by the United States Department of Education in support of graduate and undergraduate students studying less commonly taught languages and cultures, in particular, those considered to be of critical interest to the United States. IU - Love Poem FLAC - 24bit/6. IU – Lost And Found [FLAC / 24bit Lossless / WEB] [2008. Ashampoo Burning Studio is a burning program that can burn Blu-rays, DVDs and CDs. 1 kHz (Tracks) Performer: IU Title: Modern Times Published: 2013 Genre: K-Pop, Jazz, Boss Nova, Swing RAR Size: 361 Mb Tracklist: 01. 18] [EP] [WEB-FLAC] cover. 11월 24일 서울 (일요일. 소속사에서 오디션 통과의 순간부터 기획과 제작을. net helps you to store and share unlimited files, with very high download speeds. 75 OVA + 09. 01-iu-lilac. Audio: FLAC 16 bit / 44. IU - Love Poem (English Translation) Lyrics: I think there is someone / Praying for someone / I can hear the love poem / They wrote holding their breath / I wish it flies to you / And arrives to. 9_8_08 - Evening on IU Campus Near Student Building. DJ JAZZYWHUT [Be sure to check out for the dopest mixes] Dear guests! This blog does not store any files on its server. flac; 4黄霄雲 – 星辰大海. 3M,由杨*啸于2019-12-03上传到百度网盘,您可以访问iu - blueming. [국내] 아이유 IU - Palette 2017 [24bit 96khz FLAC] 아이유(IU) 정리; Zayn - Mind of Mine (Deluxe) [24bit FLAC WEB] (2016) 아이유 무손실 (FLAC) 및 MP3 320K 전앨범 모음 [해외] X – X SINGLES (FLAC 24BIT/96KHZ) [FLAC] 키썸 Kisum - The Sun The Moon [24bit/48kHz] Reflections In Cosmo - 2017, FLAC 24 [FLAC, MP3] 글림. [ 다음 주소 안내 : https://torrentplay11. IU – Blueming [FLAC格式] 内容查看此隐藏内容查看价格0. 1 disc (s) - 10 track (s) Total length: 00:36:27. 16-bit FLAC. 현재 접속중인 주소로 접속 불가능 시 [ https://토플주소. xyz Lossless & Hi-Res Music Download. IU - eight 에잇 (Prod. Circle Days. 5612 albums - 31822 Tracks - 793. 07 - Dream of Life [FLAC - MP3] Dec 3rd Yuu Takahashi [高橋優] - 2011. You may like these posts. Sensei Milanko Djurdjulov 4th dan. This blog is for preview purposes only and all music downloaded should be deleted within 24 hours. About the album. This is solely an informational web site. 가을 아침 / Autumn Morning (Ga-eul achim) 2. 아이유 (IU) - 느리게 하는 일. 21 IU - 《Modern Times》. flac百度云网盘下载,文件大小:48. high4、iu - 봄 사랑 벚꽃 말고(除了春天爱情和樱花)[320k/mp3] 2020-04-21 14:19:19 2 사랑의 불시착 OST Part. ): 아이유 - Celebrity Audio Format: FLAC HI-RES / MP3 320K / RAR Release Date: 2021. 종현 of SHINee) 11. IU - Love Poem (English Translation) Lyrics: I think there is someone / Praying for someone / I can hear the love poem / They wrote holding their breath / I wish it flies to you / And arrives to. flac [26M]. 23 IU - 专辑《I U》. Mustang 08. ): 아이유 – Celebrity Audio Format: FLAC HI-RES / MP3 320K / RAR Release Date: 2021. com ] 만 기억하시면 언제든 접속하실수 있습니다. IU (아이유) - eight (Prod. I-LAND Part. ?“約束の地” サンタ・ルシア・ハイランズ地区を代表するトップ生産者。有力各誌で“本家”DRCの特級に伯仲する「カリフォルニア版ラ・ターシュ総本家」 。《ルシア by ピゾーニエステイト》 ピノノワール ソベラネス・ヴィンヤード サンタルシアハイランズ. Main artist: IU. 잠 못 드는 밤 비는 내리고 / Sleepless Rainy Night (Jam mot deuneun bam bineun naeligo). First versus Second-Mover Advantage with Information Asymmetry about the Size of New Markets. I currently have 621 whole or partial shows (including different and/or separate audio and video versions of some shows), compilations, and demos. 21 Language: Korean File Compression Type: rar Bit Rate: iTunes Plus AAC M4A I 256 kbps I 44 khz File Size: 76 MB. Jun Maeda×Yanaginagi – Kimi to Iu Shinwa/Goodbye Seven Seas 麻枝准×やなぎなぎ / 君という神話/Goodbye Seven Seas M-01 TV Anime “Kamisama ni Natta Hi” Opening Theme Tracklist: 01 君という神話 02 Goodbye Seven Seas 03 君という神話 (Instrumental) 04 Goodbye Seven Seas (Instrumental). Corbin) Boys Noize's "IU" featuring Corbin, moody and aggressive techno with cavernous kicks pummeling under hi-tec breaks and hoovers at an overclocked, redlined tempo. Modern Times. 说明:《iu 李知恩 - palette [hi-res 24bit-96khz] - 2017 flac》是网友分享的百度云网盘下载链接本站并不保存该资源,您可以下载文件到电脑或者保存到自己的百度云盘账号,建议打开文件前先进行杀毒。. 韩国女神李知恩iu时隔四年终于发行个人正规5辑《lilac》,依旧是充满活力的曲风,新鲜出炉歌单,各位不妨鉴赏一下。. 아이유 - 3집 Modern Times [3rd Album] Release Date: 2013. 75 OVA + 09. flac - mp3 version 9_8_08 - Evening on IU Campus Near Student Building. Artist: IU Title: Lost And Found Genre: Pop, Ballad, Vocal. SUGA of BTS) [FLAC 24bit/48kHz] Blu-Ray Audio / Concert, Music Video. Com是一个免费提供无损音乐下载的网站,专注于Ape音乐、Flac音乐以及Wav等各类高品质无损音乐的免费下载,致力于做国内最好的无损音乐下载网站. If you need to import a file of these types into Audacity, you will first need to export it in one of the standard. Obliviate 08. 사랑이 잘 Can’t Love You Anymore (with 오혁) 5. 1 disc (s) - 10 track (s) Total length: 00:36:27. IU - Into the I-LAND (Romanized) Lyrics: I got pushed tteomillyeo wasseo / Oraedo chaja hemaen kkumui mun ape / Nae ane geu jageun noraega / Jageun noraega nal yeogi deryeowasseo / Oerowodo gidael. Pred: 2021-03-28 09:12:13 2m 3d 12h 17s ago Group: HUNNiT Section: FLAC Files: 10 F Size: 247 MB Show NFO. 专辑介绍:IU出了不少单曲专辑和正规录音室专辑,具体详情见下面的专辑封面,各位粉丝收藏的话尽快,失效不. 1 Signal Song Released: 2020-06-19 Genre: Dance TRACK LIST: 1. Sometimes within predefined structures, sometimes out of nothing. SUGA of BTS) [FLAC 24bit + MP3 320 / WEB] 1312. Anniversary. Everybody Has Secrets 03. G-DRAGON) Mp4 (720p) [21. Karate at FLAC, Elkhorn, WI. 01 나의 옛날이야기. Find more of IU lyrics. If you need to import a file of these types into Audacity, you will first need to export it in one of the standard. the Red Shoes 05. 1 disc (s) - 10 track (s) Total length: 00:36:27. 14 Gb WebSite: Album Preview. 29) 아이유 (IU) - Last Fantasy [flac]/09. mp3; 3深海鱼子酱 – 千千万万. Artist & Title: IU - Celebrity Artist & Title (Org. 27 Tracklist: 01. flac - spectrogram 373702. 가을 아침 / Autumn Morning (Ga-eul achim) 2. IU-BBIBBI [Hi-Res] FLAC IU 01/27 102 11 收藏 下载地址. 8 MiB) 06 - The Age of the Cathedrals. 사랑이 잘 Can't Love You Anymore (with 오혁) 5. 4 IU - 《Palette》Hi-Res. Direct/Hot Linking. 0 / 5, 0 votes. I-LAND Part.